Antworten

Sky Cinema 007 - Kein DD 5.1 Ton

Geräuschemacher
Posts: 5
Post 1 von 12
412 Ansichten

Sky Cinema 007 - Kein DD 5.1 Ton

Ich hab bei keinem der neusten 007 Filme einen Dolby Digital 5.1 Ton, es sind nur einfache 2.0 Filme : (

Wie kann das sein ? Ist das immer so auf den Popup Sendern ?

Alle Antworten
Antworten
Castingleiter
Posts: 2,080
Post 2 von 12
407 Ansichten

Betreff: Sky Cinema 007 - Kein DD 5.1 Ton

Wenn du über Vodafone empfängst, dann ist das leider Standard.

Maskenbildner
Posts: 493
Post 3 von 12
401 Ansichten

Betreff: Sky Cinema 007 - Kein DD 5.1 Ton

Sehe gerade Spectre mit Dolby Digital Ton 5.1 über Vodafone. Keine Probleme.

 

Übrigens mit Vodafone oder anderen hat das überhaupt nichts zu tun. On Demand läuft über den Internet Anschluss. 

PS: auch im linearen Sender in Dolby Digital 5.1 Ton , bei Vodafone.

Castingleiter
Posts: 2,080
Post 4 von 12
394 Ansichten

Betreff: Sky Cinema 007 - Kein DD 5.1 Ton

https://community.sky.de/t5/Filme/Sky-Cinema-Spezial-HD-Jetzt-Bourne-HD-Ton-nur-DD5-0/m-p/460687

Lies dich mal hier durch, bei den gab es Probleme, die alten Filme gibt es logischerweise nicht in DD 5.1

Maskenbildner
Posts: 493
Post 5 von 12
392 Ansichten

Betreff: Sky Cinema 007 - Kein DD 5.1 Ton

Wenn es Probleme gab, sind sie behoben. Ich kann nur sagen, heute läuft Spectre in 5.1.

Die Frage ist ja von heute.

Castingleiter
Posts: 2,080
Post 6 von 12
390 Ansichten

Betreff: Sky Cinema 007 - Kein DD 5.1 Ton

Ja alles gut vllt. liegt das ja auch daran das die Filme älter sind....

Geräuschemacher
Posts: 5
Post 7 von 12
345 Ansichten

Betreff: Sky Cinema 007 - Kein DD 5.1 Ton

Ich weiß ja nicht was ihr unter 5.1 versteht, für mich gehören da 6 Kanäle dazu und nicht so wie bei Sky nur 2 Kanäle.

Ich gucke über SAT und spreche auch von den neueren Filmen.

Hier ist der Casino Royal von 2006 durch den TS Doctor gejagd und analysiert. Für mich ist das kastriertes DD 5.1 da nutze einem eine Heinkinoanlage gar nichts, weil es keinen Surround Effekt gibt, ich hab die Filme auch alle auf Blue Ray, dort gibt es echtes DD 5.1 mit 6 Kanäle. Wahrscheinlich wurde da wiedermal der Rotstift angesetzt.

Die Filme auf anderen Sky Cinema Sendern haben übrigens zu 80 % einen 6 Kanal Ton

 

 

Format : MPEG-TS
File size : 6.77 GiB
Duration : 2 h 16 min
Start time : UTC 2020-11-22 15:02:43
End time : UTC 2020-11-22 17:18:56
Overall bit rate mode : Variable
Overall bit rate : 7 114 kb/s
Country : DEU
Timezone : +01:00:00

Video
ID : 255 (0xFF)
Menu ID : 111 (0x6F)
Format : AVC
Format/Info : Advanced Video Codec
Format profile : Main@L4
Format settings : CABAC / 4 Ref Frames
Format settings, CABAC : Yes
Format settings, ReFrames : 4 frames
Format settings, GOP : M=4, N=24
Codec ID : 27
Duration : 2 h 16 min
Bit rate : 6 180 kb/s
Width : 1 920 pixels
Height : 1 080 pixels
Display aspect ratio : 16:9
Frame rate : 25.000 FPS
Standard : Component
Color space : YUV
Chroma subsampling : 4:2:0
Bit depth : 8 bits
Scan type : MBAFF
Scan type, store method : Interleaved fields
Scan order : Top Field First
Bits/(Pixel*Frame) : 0.119
Stream size : 5.88 GiB (87%)
Color range : Limited

Audio #1
ID : 259 (0x103)
Menu ID : 111 (0x6F)
Format : AC-3
Format/Info : Audio Coding 3
Commercial name : Dolby Digital
Codec ID : 6
Duration : 2 h 16 min
Bit rate mode : Constant
Bit rate : 384 kb/s
Channel(s) : 2 channels
Channel layout : L R
Sampling rate : 48.0 kHz
Frame rate : 31.250 FPS (1536 SPF)
Bit depth : 16 bits
Compression mode : Lossy
Delay relative to video : -824 ms
Stream size : 374 MiB (5%)
Language : German
Language, more info : Clean effects
Service kind : Complete Main

Audio #2
ID : 260 (0x104)
Menu ID : 111 (0x6F)
Format : AC-3
Format/Info : Audio Coding 3
Commercial name : Dolby Digital
Codec ID : 6
Duration : 2 h 16 min
Bit rate mode : Constant
Bit rate : 192 kb/s
Channel(s) : 2 channels
Channel layout : L R
Sampling rate : 48.0 kHz
Frame rate : 31.250 FPS (1536 SPF)
Bit depth : 16 bits
Compression mode : Lossy
Delay relative to video : -608 ms
Stream size : 187 MiB (3%)
Language : English
Language, more info : Clean effects
Service kind : Complete Main

 

Geräuschemacher
Posts: 5
Post 8 von 12
339 Ansichten

Betreff: Sky Cinema 007 - Kein DD 5.1 Ton

Ich weiß ja nicht was ihr unter 5.1 versteht, für mich gehören da 6 Kanäle dazu und nicht so wie bei Sky nur 2 Kanäle.

Ich gucke über SAT und spreche auch von den neueren Filmen.

Hier ist der Casino Royal von 2006 durch den TS Doctor gejagd und analysiert. Für mich ist das kastriertes DD 5.1 da nutze einem eine Heinkinoanlage gar nichts, weil es keinen Surround Effekt gibt, ich hab die Filme auch alle auf Blue Ray, dort gibt es echtes DD 5.1 mit 6 Kanäle. Wahrscheinlich wurde da wiedermal der Rotstift angesetzt.

Die Filme auf anderen Sky Cinema Sendern haben übrigens zu 80 % einen 6 Kanal Ton

 

 

Format : MPEG-TS
File size : 6.77 GiB
Duration : 2 h 16 min
Start time : UTC 2020-11-22 15:02:43
End time : UTC 2020-11-22 17:18:56
Overall bit rate mode : Variable
Overall bit rate : 7 114 kb/s
Country : DEU
Timezone : +01:00:00

Video
ID : 255 (0xFF)
Menu ID : 111 (0x6F)
Format : AVC
Format/Info : Advanced Video Codec
Format profile : Main@L4
Format settings : CABAC / 4 Ref Frames
Format settings, CABAC : Yes
Format settings, ReFrames : 4 frames
Format settings, GOP : M=4, N=24
Codec ID : 27
Duration : 2 h 16 min
Bit rate : 6 180 kb/s
Width : 1 920 pixels
Height : 1 080 pixels
Display aspect ratio : 16:9
Frame rate : 25.000 FPS
Standard : Component
Color space : YUV
Chroma subsampling : 4:2:0
Bit depth : 8 bits
Scan type : MBAFF
Scan type, store method : Interleaved fields
Scan order : Top Field First
Bits/(Pixel*Frame) : 0.119
Stream size : 5.88 GiB (87%)
Color range : Limited

Audio #1
ID : 259 (0x103)
Menu ID : 111 (0x6F)
Format : AC-3
Format/Info : Audio Coding 3
Commercial name : Dolby Digital
Codec ID : 6
Duration : 2 h 16 min
Bit rate mode : Constant
Bit rate : 384 kb/s
Channel(s) : 2 channels
Channel layout : L R
Sampling rate : 48.0 kHz
Frame rate : 31.250 FPS (1536 SPF)
Bit depth : 16 bits
Compression mode : Lossy
Delay relative to video : -824 ms
Stream size : 374 MiB (5%)
Language : German
Language, more info : Clean effects
Service kind : Complete Main

Audio #2
ID : 260 (0x104)
Menu ID : 111 (0x6F)
Format : AC-3
Format/Info : Audio Coding 3
Commercial name : Dolby Digital
Codec ID : 6
Duration : 2 h 16 min
Bit rate mode : Constant
Bit rate : 192 kb/s
Channel(s) : 2 channels
Channel layout : L R
Sampling rate : 48.0 kHz
Frame rate : 31.250 FPS (1536 SPF)
Bit depth : 16 bits
Compression mode : Lossy
Delay relative to video : -608 ms
Stream size : 187 MiB (3%)
Language : English
Language, more info : Clean effects
Service kind : Complete Main

Geräuschemacher
Posts: 5
Post 9 von 12
356 Ansichten

Betreff: Sky Cinema 007 - Kein DD 5.1 Ton

Ist schon witzig, man schreibt was negatives und liefert dabei Beweise in Form von einer Textdatei, eines Analyseprogramm und schon wird der Beitrag gelöscht.

Danke Sky, naja. Bis Februar noch und dann endlich frei. 

Regie
Posts: 4,749
Post 10 von 12
349 Ansichten

Betreff: Sky Cinema 007 - Kein DD 5.1 Ton


@Cryptor  schrieb:

Ist schon witzig, man schreibt was negatives und liefert dabei Beweise in Form von einer Textdatei, eines Analyseprogramm und schon wird der Beitrag gelöscht.


Das hat sicherlich kein realer Mensch gelesen und hat den Beitrag gelöscht, denn so schnell, wie das nach dem absenden vom Beitrag passiert, kann das kein realer Mensch gelesen und bearbeitet haben. Das ganze passiert vollautomatisch von selber vom Spam-Filter, der hier im Sky Forum eingebaut ist. Dieser verschiebt jeden Beitrag, der etwas enthällt, was im nicht gefällt, erst einmal in den Spam-Ordner. Sobald ein(e) Sky Moderator(in) Zeit hat und in den Spam-Ordner schaut, wird der Beitrag von dieser Person gelesen und, falls kein Spam, wieder an die richtige Stelle im Sky Forum verschoben.

 

Gruß, Sonic28

Geräuschemacher
Posts: 5
Post 11 von 12
347 Ansichten

Betreff: Sky Cinema 007 - Kein DD 5.1 Ton

Dann sollte man den Spamfilter aber mal überarbeiten. 

Fakt ist, das es 5.1 Ton zwar ist, aber eben nur mit 2 Kanälen, was ziemlich sinnfrei ist. 

Getestet bei mehreren 007 Filmen zu unterschiedlichen Zeiten. 

Schnitt
Posts: 1,264
Post 12 von 12
340 Ansichten

Betreff: Sky Cinema 007 - Kein DD 5.1 Ton

Also wenn 5.1 dann sind es 6 Kanäle. Kann mir nicht verstellen dass dann nur 2 dieses Kanäle belegt sind.

2 Kanäle wären es ja bei DD 2.0

Antworten